<?xml version="1.0" standalone="no"?>
<!DOCTYPE svg PUBLIC "-//W3C//DTD SVG 1.1//EN" "http://www.w3.org/Graphics/SVG/1.1/DTD/svg11.dtd" >
<!--
2013-9-15: Created.
-->
<svg xmlns="http://www.w3.org/2000/svg">
<metadata>
Created by FontForge 20120731 at Sun Sep 15 15:49:40 2013
 By Tyler Wanlass
Created by Tyler Wanlass with FontForge 2.0 (http://fontforge.sf.net)
</metadata>
<defs>
<font id="picto-foundry-shopping-finance" horiz-adv-x="512" >
  <font-face 
    font-family="picto-foundry-shopping-finance"
    font-weight="500"
    font-stretch="normal"
    units-per-em="512"
    panose-1="2 0 6 3 0 0 0 0 0 0"
    ascent="448"
    descent="-64"
    bbox="-0.392305 -64 512.392 448.41"
    underline-thickness="25.6"
    underline-position="-51.2"
    unicode-range="U+F100-F135"
  />
    <missing-glyph />
    <glyph glyph-name="uniF100" unicode="&#xf100;" 
d="M408 39c24 0 44 -19 44 -43s-20 -44 -44 -44s-44 20 -44 44c0 9 2 17 7 24h-156c5 -7 8 -17 8 -26c0 -24 -20 -43 -44 -43s-44 19 -44 43c0 10 4 19 9 26l-16 65l-57 207v0c0 1 -1 3 -1 4l-5 17h1c-15 42 -50 46 -65 45l-1 20c33 2 71 -15 86 -65h195v135h20v-135h211
l-65 -235h-296l9 -39h245v0h3zM290 183v0v0v0zM146 98h286l54 196h-185v-101l35 34l14 -14l-59 -57l-64 57l13 15l41 -37v103h-189zM179 -30c13 0 24 11 24 24s-11 24 -24 24s-24 -11 -24 -24s11 -24 24 -24zM408 -28c13 0 24 11 24 24s-11 24 -24 24s-24 -11 -24 -24
s11 -24 24 -24z" />
    <glyph glyph-name="uniF101" unicode="&#xf101;" 
d="M256 427l-247 -139l-9 16l256 144l256 -144l-9 -16zM467 280h-10v-230h10v-18h-421v18h9v230h-10v18h422v-18zM183 280v-230h36v230h-36zM164 50v230h-36v-230h36zM238 280v-230h36v230h-36zM292 280v-230h37v230h-37zM347 280v-230h37v230h-37zM73 280v-230h36v230h-36z
M439 50v230h-37v-230h37zM4 -10v18h504v-18h-504z" />
    <glyph glyph-name="uniF102" unicode="&#xf102;" 
d="M0 27v421h18v-421h-18zM46 27v421h18v-421h-18zM192 27v421h18v-421h-18zM238 27v421h18v-421h-18zM366 27v421h18v-421h-18zM494 27v421h18v-421h-18zM430 27v421h36v-421h-36zM293 27v421h36v-421h-36zM96 27v421h46v-421h-46z" />
    <glyph glyph-name="uniF103" unicode="&#xf103;" horiz-adv-x="337" 
d="M283 448c30 0 54 -24 54 -54v-404c0 -30 -24 -54 -54 -54h-229c-30 0 -54 24 -54 54v404c0 30 24 54 54 54h229zM319 -10v404c0 20 -16 36 -36 36h-229c-20 0 -36 -16 -36 -36v-404c0 -20 16 -36 36 -36h229c20 0 36 16 36 36zM58 283c-5 0 -9 4 -9 9v97c0 5 4 9 9 9h216
c5 0 9 -4 9 -9v-97c0 -5 -4 -9 -9 -9h-216zM67 380v-79h198v79h-198zM49 219c0 12 6 18 18 18s18 -6 18 -18s-6 -18 -18 -18s-18 6 -18 18zM115 219c0 12 6 18 18 18s18 -6 18 -18s-6 -18 -18 -18s-18 6 -18 18zM179 219c0 12 6 18 18 18s18 -6 18 -18s-6 -18 -18 -18
s-18 6 -18 18zM49 156c0 12 6 18 18 18s18 -6 18 -18s-6 -18 -18 -18s-18 6 -18 18zM115 156c0 12 6 18 18 18s18 -6 18 -18s-6 -18 -18 -18s-18 6 -18 18zM179 156c0 12 6 18 18 18s18 -6 18 -18s-6 -18 -18 -18s-18 6 -18 18zM49 93c0 12 6 18 18 18s18 -6 18 -18
s-6 -18 -18 -18s-18 6 -18 18zM115 93c0 12 6 18 18 18s18 -6 18 -18s-6 -18 -18 -18s-18 6 -18 18zM179 93c0 12 6 18 18 18s18 -6 18 -18s-6 -18 -18 -18s-18 6 -18 18zM49 30c0 12 6 18 18 18s18 -6 18 -18s-6 -18 -18 -18s-18 6 -18 18zM115 30c0 12 6 18 18 18
s18 -6 18 -18s-6 -18 -18 -18s-18 6 -18 18zM179 30c0 12 6 18 18 18s18 -6 18 -18s-6 -18 -18 -18s-18 6 -18 18zM247 219c0 12 6 18 18 18s18 -6 18 -18s-6 -18 -18 -18s-18 6 -18 18zM265 174c10 0 18 -8 18 -18v-126c0 -10 -8 -18 -18 -18s-18 8 -18 18v126
c0 10 8 18 18 18z" />
    <glyph glyph-name="uniF104" unicode="&#xf104;" horiz-adv-x="416" 
d="M212 142c46 1 100 -1 102 -51c1 -35 -29 -65 -76 -76c-9 -2 -17 -3 -26 -4v-30h-18v30c-42 2 -83 22 -101 62l17 7c15 -33 49 -49 84 -51v94c-34 -1 -65 1 -82 18c-8 8 -12 20 -11 34c2 36 30 61 76 69c6 1 11 2 17 2v27h18v-27c37 -2 74 -18 87 -50l-17 -7
c-9 23 -39 37 -70 39v-86zM125 153c12 -12 40 -13 69 -12v87c-5 0 -9 -1 -14 -2c-14 -2 -59 -12 -61 -52c-1 -9 1 -16 6 -21zM234 33c29 7 62 25 61 57c-1 31 -32 34 -83 33v-94c8 0 15 2 22 4zM258 315c95 -27 158 -120 158 -206c0 -102 -87 -173 -212 -173
c-122 0 -204 70 -204 173c0 86 57 182 153 207l-56 84c-2 3 -2 6 0 9s5 4 8 4l62 -7l31 39c2 2 4 3 7 3s5 -2 6 -4l29 -41l67 14c3 1 7 -1 9 -4s2 -6 0 -9zM121 394l49 -74c2 0 3 1 5 1c9 1 19 2 29 2c13 0 25 -2 37 -4l50 77l-53 -10c-3 -1 -7 0 -9 3l-25 37l-27 -34
c-2 -2 -5 -3 -8 -3zM204 -47c115 0 195 64 195 156c0 81 -69 197 -195 197c-9 0 -17 -1 -26 -2c-79 -11 -161 -87 -161 -195c0 -93 75 -156 187 -156z" />
    <glyph glyph-name="uniF105" unicode="&#xf105;" 
d="M503 268c5 0 9 -4 9 -9v-264c0 -5 -4 -9 -9 -9h-494c-5 0 -9 4 -9 9v264c0 5 4 9 9 9h178l4 27h-182v18h185l5 27h-172v18h175l5 27h-162v18h165l4 27h-151v18h155h69h163v-18h-159l5 -27h172v-18h-168l6 -27h180v-18h-176l6 -27h188v-18h-184l5 -27h178zM325 233v-219
c19 28 30 67 30 110s-11 81 -30 109zM187 15v218c-18 -28 -30 -66 -30 -109s12 -81 30 -109zM139 124c0 50 15 95 39 126h-92c-14 -28 -38 -49 -68 -60v-126c27 -12 50 -34 63 -60h92c-21 31 -34 74 -34 120zM373 124c0 -46 -12 -89 -33 -120h91c13 26 36 47 63 59v129
c-27 12 -49 32 -62 58h-98c24 -31 39 -76 39 -126zM494 212v38h-41c10 -16 24 -29 41 -38zM66 250h-48v-41c20 9 37 23 48 41zM18 44v-40h42c-10 17 -25 31 -42 40zM452 4h42v40c-17 -9 -32 -23 -42 -40zM448 128c0 -15 -12 -27 -27 -27s-27 12 -27 27s12 27 27 27
s27 -12 27 -27zM412 128c0 -5 4 -9 9 -9s9 4 9 9s-4 9 -9 9s-9 -4 -9 -9zM62 128c0 15 12 27 27 27s26 -12 26 -27s-11 -27 -26 -27s-27 12 -27 27zM98 128c0 5 -4 9 -9 9s-9 -4 -9 -9s4 -9 9 -9s9 4 9 9z" />
    <glyph glyph-name="uniF106" unicode="&#xf106;" 
d="M511 137c1 -3 1 -6 -1 -8s-4 -4 -7 -4h-37l12 -48c1 -3 1 -6 -1 -8s-4 -4 -7 -4h-424c-3 0 -5 2 -7 4s-3 4 -2 7l10 49h-38c-3 0 -5 2 -7 4s-2 5 -1 8l51 136h-43v175h495v-175h-45zM398 143c2 44 25 76 59 85l-23 61c-41 -16 -110 -25 -178 -25c-69 0 -138 8 -179 25
l-22 -59c40 -4 68 -38 70 -87h273zM383 125h-241c8 -10 16 -24 16 -42h209c1 18 8 32 16 42zM96 340l-13 -34c30 -12 89 -24 173 -24c83 0 141 11 172 23l-14 36zM27 291h32l10 27h-12v67h399v-67h-14l3 -8l-8 -3c3 -4 5 -9 8 -13c-1 0 -2 -2 -3 -2l8 4l2 -5h34v139h-459
v-139zM48 212l-26 -69h85c-2 42 -26 69 -59 69zM65 125l-8 -42h83c0 22 -16 37 -24 42h-51zM458 83l-10 42h-41c-8 -6 -21 -21 -22 -42h73zM416 143h74l-26 68c-27 -6 -46 -31 -48 -68zM254 245c22 0 40 -11 40 -25s-18 -25 -40 -25s-39 11 -39 25s17 25 39 25zM254 213
c14 0 22 5 22 7s-8 7 -22 7s-21 -5 -21 -7s7 -7 21 -7z" />
    <glyph glyph-name="uniF107" unicode="&#xf107;" horiz-adv-x="393" 
d="M385 448c5 0 8 -4 8 -9v-494c0 -5 -3 -9 -8 -9h-264c-5 0 -9 4 -9 9v74l-111 279c-2 5 0 10 5 12l35 14l-9 35c-1 5 2 10 7 11l34 9l-4 29c-1 5 3 9 8 10l35 5v16c0 5 4 9 9 9h264zM376 17v92c-31 -21 -74 -34 -120 -34c-50 0 -95 15 -126 39v-92c28 -14 49 -38 60 -68
h126c12 27 34 50 60 63zM256 93c48 0 92 15 120 38v123c-28 23 -72 37 -120 37c-53 0 -99 -18 -126 -44v-110c27 -27 73 -44 126 -44zM256 309c46 0 89 -12 120 -33v91c-26 13 -48 36 -60 63h-128c-12 -27 -32 -49 -58 -62v-98c31 24 76 39 126 39zM376 388v42h-40
c9 -17 23 -32 40 -42zM168 430h-38v-41c16 10 29 24 38 41zM112 405l-24 -3l24 -167v170zM76 361l-24 -6l56 -221zM46 306l-25 -10l75 -188zM130 2v-48h41c-9 20 -23 37 -41 48zM336 -46h40v42c-17 -10 -31 -25 -40 -42zM252 384c15 0 27 -12 27 -27s-12 -27 -27 -27
s-27 12 -27 27s12 27 27 27zM252 348c5 0 9 4 9 9s-4 9 -9 9s-9 -4 -9 -9s4 -9 9 -9zM225 25c0 15 12 26 27 26s27 -11 27 -26s-12 -27 -27 -27s-27 12 -27 27zM261 25c0 5 -4 9 -9 9s-9 -4 -9 -9s4 -9 9 -9s9 4 9 9z" />
    <glyph glyph-name="uniF108" unicode="&#xf108;" 
d="M459 101c29 0 53 -25 53 -54v-53c0 -29 -24 -54 -53 -54h-228h-2c-4 0 -10 1 -15 1h-1c-2 0 -3 -1 -4 -1h-156c-29 0 -53 25 -53 54v401c0 29 24 53 53 53h156c29 0 54 -24 54 -53v-85c12 -3 23 -7 34 -13l25 38l-17 10l9 16l51 -32l-9 -15l-19 12l-24 -38
c20 -12 39 -29 56 -47l35 32l-13 15l14 11l38 -46l-14 -12l-14 18l-34 -31c16 -20 31 -41 41 -64l36 13l-7 21l17 5l19 -57l-17 -5l-7 19l-34 -13c6 -16 9 -31 11 -46h19zM53 430c-20 0 -35 -15 -35 -35v-294h404c-11 83 -92 176 -170 193c-4 1 -7 5 -7 9v92
c0 20 -16 35 -36 35h-156zM494 -6v0v53c0 20 -15 36 -35 36h-27h-414v-89c0 -20 15 -36 35 -36h156h1h2h2h1h14v0h2h228c20 0 35 16 35 36zM101 218c-25 5 -41 30 -36 55c4 21 24 37 46 37c3 0 6 0 9 -1c25 -5 41 -30 36 -55v-2l118 -57c6 5 14 8 23 6c14 -3 24 -17 21 -31
s-17 -24 -31 -21s-23 16 -21 30l-118 57c-9 -11 -22 -19 -37 -19c-3 0 -7 0 -10 1zM83 269c-3 -15 7 -31 22 -34c10 -2 19 2 26 9l-24 11c-4 2 -6 8 -4 12s8 7 12 5l24 -12c2 15 -7 29 -22 32h-6c-14 0 -25 -10 -28 -23z" />
    <glyph glyph-name="uniF109" unicode="&#xf109;" 
d="M503 448c5 0 9 -4 9 -9v-264c0 -5 -4 -9 -9 -9h-494c-5 0 -9 4 -9 9v264c0 5 4 9 9 9h494zM157 303c0 -48 15 -91 38 -119h123c23 28 37 71 37 119c0 53 -18 100 -44 127h-110c-27 -27 -44 -74 -44 -127zM173 184c-21 31 -34 73 -34 119c0 50 15 96 39 127h-92
c-14 -28 -38 -49 -68 -60v-126c27 -12 50 -34 63 -60h92zM373 303c0 -46 -12 -88 -33 -119h91c13 26 36 47 63 59v129c-27 12 -49 32 -62 58h-98c24 -31 39 -77 39 -127zM494 392v38h-41c10 -16 24 -29 41 -38zM66 430h-48v-41c20 9 37 23 48 41zM18 224v-40h42
c-10 17 -25 31 -42 40zM452 184h42v39c-17 -9 -32 -22 -42 -39zM448 308c0 -15 -12 -27 -27 -27s-27 12 -27 27s12 27 27 27s27 -12 27 -27zM412 308c0 -5 4 -9 9 -9s9 4 9 9s-4 9 -9 9s-9 -4 -9 -9zM89 335c15 0 26 -12 26 -27s-11 -27 -26 -27s-27 12 -27 27s12 27 27 27z
M89 299c5 0 9 4 9 9s-4 9 -9 9s-9 -4 -9 -9s4 -9 9 -9zM4 127v18h504v-18h-504zM4 91v18h504v-18h-504zM4 55v18h504v-18h-504zM4 19v18h504v-18h-504z" />
    <glyph glyph-name="uniF10A" unicode="&#xf10a;" 
d="M503 448c5 0 9 -4 9 -9v-264c0 -5 -4 -9 -9 -9h-494c-5 0 -9 4 -9 9v264c0 5 4 9 9 9h494zM157 303c0 -48 15 -91 38 -119h123c23 28 37 71 37 119c0 53 -18 100 -44 127h-110c-27 -27 -44 -74 -44 -127zM173 184c-21 31 -34 73 -34 119c0 50 15 96 39 127h-92
c-14 -28 -38 -49 -68 -60v-126c27 -12 50 -34 63 -60h92zM373 303c0 -46 -12 -88 -33 -119h91c13 26 36 47 63 59v129c-27 12 -49 32 -62 58h-98c24 -31 39 -77 39 -127zM494 392v38h-41c10 -16 24 -29 41 -38zM66 430h-48v-41c20 9 37 23 48 41zM18 224v-40h42
c-10 17 -25 31 -42 40zM452 184h42v39c-17 -9 -32 -22 -42 -39zM448 308c0 -15 -12 -27 -27 -27s-27 12 -27 27s12 27 27 27s27 -12 27 -27zM412 308c0 -5 4 -9 9 -9s9 4 9 9s-4 9 -9 9s-9 -4 -9 -9zM89 335c15 0 26 -12 26 -27s-11 -27 -26 -27s-27 12 -27 27s12 27 27 27z
M89 299c5 0 9 4 9 9s-4 9 -9 9s-9 -4 -9 -9s4 -9 9 -9z" />
    <glyph glyph-name="uniF10B" unicode="&#xf10b;" 
d="M503 448c5 0 9 -4 9 -9v-264c0 -5 -4 -9 -9 -9h-494c-5 0 -9 4 -9 9v264c0 5 4 9 9 9h494zM494 184v246h-476v-246h476zM49 383v18h99v-18h-99zM49 347v18h63v-18h-63zM50 299v18h314v-18h-314zM389 299v18h74v-18h-74zM49 208v18h133v-18h-133zM365 216
c-4 11 -6 33 4 45c5 6 12 9 20 8s14 -5 18 -10c6 -9 4 -19 2 -28c0 -1 -1 -3 -1 -4c1 0 0 -1 1 -1c2 -1 4 -2 5 -2v0h2c2 0 5 1 8 0c4 -1 6 -2 8 -4c1 1 3 1 5 1c4 0 7 0 10 -1c2 -1 3 -1 4 -1s4 3 6 4c3 2 5 4 8 5l7 -16c-1 0 -3 -2 -4 -3c-4 -3 -9 -7 -14 -8s-9 0 -12 1
c-1 -1 -2 -2 -4 -2c-8 -1 -13 3 -16 5c-1 1 -2 2 -3 2c0 0 -1 -1 -2 -1c-2 0 -5 0 -8 1c-2 1 -5 2 -7 3h-1c-1 -2 -1 -3 -2 -5c-1 -3 -4 -5 -8 -5h-6h-7c-11 -4 -24 -6 -36 -6c-8 0 -15 1 -22 3l5 17c11 -3 27 -3 41 1c0 1 -1 0 -1 1zM383 250c-4 -5 -4 -19 -1 -28v0
c1 1 2 0 3 1c1 2 2 5 4 6c1 2 1 3 2 6c2 9 2 13 1 14s-4 2 -5 2h-1c-2 0 -2 0 -3 -1z" />
    <glyph glyph-name="uniF10C" unicode="&#xf10c;" 
d="M408 32c24 0 44 -20 44 -44s-20 -44 -44 -44s-44 20 -44 44c0 9 2 17 7 24h-156c5 -7 8 -16 8 -25c0 -24 -20 -44 -44 -44s-44 20 -44 44c0 10 4 19 9 26l-16 65l-57 206v0c0 1 -1 3 -1 4l-5 18h1c-15 42 -50 45 -65 44l-1 20c33 2 71 -14 86 -64h426l-65 -236h-296
l9 -38h245v0h3zM146 90h286l54 196h-394zM179 -37c13 0 24 11 24 24s-11 24 -24 24s-24 -11 -24 -24s11 -24 24 -24zM408 -36c13 0 24 11 24 24s-11 24 -24 24s-24 -11 -24 -24s11 -24 24 -24zM377 356l28 32h-257v20h255l-25 26l14 14l48 -50l-47 -55zM413 398v-1v0v1z" />
    <glyph glyph-name="uniF10D" unicode="&#xf10d;" 
d="M261 142c38 1 80 -2 82 -43c1 -30 -23 -54 -62 -63c-7 -2 -13 -3 -20 -3v-23h-18v23c-34 2 -67 18 -82 51l16 7c12 -26 39 -38 66 -40v73c-27 0 -52 1 -66 15c-7 7 -11 17 -10 29c2 30 26 52 63 58c4 1 9 1 13 1v20h18v-20c30 -2 59 -16 70 -42l-16 -6
c-7 18 -30 28 -54 30v-67zM189 151c9 -9 31 -9 54 -9v67c-3 0 -7 0 -10 -1c-11 -2 -46 -10 -48 -41c0 -7 1 -13 4 -16zM277 53c23 5 49 21 48 46c-1 23 -24 26 -64 25v-73c6 0 11 1 16 2zM481 321c19 -9 31 -27 31 -49v-279c0 -30 -24 -54 -54 -54h-404c-30 0 -54 24 -54 54
v279c0 22 13 41 32 49c2 25 21 45 46 48c5 23 24 40 47 43c7 21 27 36 51 36h162c24 0 44 -15 51 -36c23 -3 41 -20 46 -43c24 -4 44 -24 46 -48zM176 430c-13 0 -25 -7 -31 -18h224c-6 11 -18 18 -31 18h-162zM131 394c-16 0 -29 -10 -34 -24h319c-5 14 -17 24 -33 24h-252
zM86 352c-16 0 -31 -11 -35 -26h3h404h3c-4 15 -18 26 -34 26h-341zM494 -7v279c0 20 -16 36 -36 36h-404c-20 0 -36 -16 -36 -36v-279c0 -20 16 -36 36 -36h404c20 0 36 16 36 36z" />
    <glyph glyph-name="uniF10E" unicode="&#xf10e;" horiz-adv-x="475" 
d="M282 56c-23 0 -47 3 -66 8v-45h-1c-2 -25 -56 -37 -107 -37s-106 12 -108 37v0v391c0 26 56 38 108 38s108 -12 108 -38v-25c19 5 43 7 66 7c52 0 108 -12 108 -38v-261h-1c-2 -25 -56 -37 -107 -37zM371 93v44c-21 -11 -55 -16 -89 -16c-23 0 -47 3 -66 8v-46
c15 -4 36 -8 66 -8c54 0 82 12 88 18h1zM19 322v-44v0c5 -6 35 -18 89 -18s82 12 88 18h1v44c-21 -11 -55 -15 -89 -15s-68 4 -89 15zM19 343v0c5 -6 35 -18 89 -18s82 12 88 18h1v44c-21 -11 -56 -15 -89 -15s-68 4 -89 15v-44zM19 257v-43v0c5 -6 35 -19 89 -19
s82 13 88 19h1v43c-21 -11 -55 -15 -89 -15s-68 4 -89 15zM19 193v-44v0c5 -6 35 -18 89 -18s82 12 88 18h1v44c-21 -11 -55 -16 -89 -16s-68 5 -89 16zM19 128v-44v0c5 -6 35 -18 89 -18s82 12 88 18h1v44c-21 -11 -55 -16 -89 -16s-68 5 -89 16zM371 158v44
c-21 -11 -55 -16 -89 -16c-23 0 -47 3 -66 8v-46c15 -4 36 -8 66 -8c54 0 82 12 88 18h1zM371 223v44c-21 -11 -55 -16 -89 -16c-23 0 -47 2 -66 7v-45c15 -4 36 -8 66 -8c54 0 82 12 88 18h1zM371 288v44c-21 -11 -56 -16 -89 -16c-23 0 -47 2 -66 7v-46c15 -4 36 -7 66 -7
c54 0 82 12 88 18h1zM282 374c-29 0 -51 -4 -66 -8v-24c15 -4 37 -8 66 -8c59 0 88 15 89 20c-1 5 -30 20 -89 20zM108 429c-58 0 -88 -14 -89 -19v0c1 -5 31 -20 89 -20c59 0 88 15 89 20c-1 5 -30 19 -89 19zM196 19h1v44c-21 -11 -55 -16 -89 -16s-68 5 -89 16v-44v0
c5 -6 35 -18 89 -18s82 12 88 18zM357 42c57 0 118 -18 118 -53s-61 -53 -118 -53s-118 18 -118 53s61 53 118 53zM357 -45c62 0 100 20 100 34s-38 35 -100 35s-99 -21 -99 -35s37 -34 99 -34z" />
    <glyph glyph-name="uniF10F" unicode="&#xf10f;" 
d="M458 448c30 0 54 -24 54 -54v-258c0 -30 -24 -54 -54 -54h-404c-30 0 -54 24 -54 54v258c0 30 24 54 54 54h404zM54 430c-20 0 -36 -16 -36 -36v-6h476v6c0 20 -16 36 -36 36h-404zM458 100c20 0 36 16 36 36v183h-476v-183c0 -20 16 -36 36 -36h404zM50 232v27h309v-27
h-309zM392 232v27h66v-27h-66z" />
    <glyph glyph-name="uniF110" unicode="&#xf110;" 
d="M458 448c30 0 54 -24 54 -54v-258c0 -30 -24 -54 -54 -54h-404c-30 0 -54 24 -54 54v258c0 30 24 54 54 54h404zM494 136v258c0 20 -16 36 -36 36h-404c-20 0 -36 -16 -36 -36v-258c0 -20 16 -36 36 -36h404c20 0 36 16 36 36zM59 350v34h206v-34h-206zM364 136v70h95
v-70h-95zM59 256v18h353v-18h-353zM59 184v18h182v-18h-182zM59 148v18h101v-18h-101z" />
    <glyph glyph-name="uniF111" unicode="&#xf111;" 
d="M411 448l101 -111l-256 -321l-256 322l101 110h310zM259 430h-4l-56 -84h115zM280 430l54 -82l49 82h-103zM319 328h-126l63 -252zM182 353l51 77h-102zM241 64l-66 264h-145zM337 328l-65 -264l210 264h-145zM480 346l-77 84l-50 -84h127zM109 430l-77 -84h133l-55 84
h-1z" />
    <glyph glyph-name="uniF112" unicode="&#xf112;" horiz-adv-x="373" 
d="M195 211c83 2 175 1 178 -82c2 -58 -47 -109 -126 -127c-17 -4 -34 -5 -52 -6v-60h-18v60c-73 3 -146 34 -177 104l16 7c28 -62 94 -91 161 -93v178c-61 -1 -118 0 -146 29c-13 13 -18 31 -17 54c3 60 51 103 127 116c12 2 24 3 36 3v54h18v-54c66 -3 131 -30 153 -83
l-17 -7c-19 46 -77 69 -136 72v-165zM44 233c23 -24 78 -24 133 -23v166c-11 0 -22 -1 -33 -3c-67 -11 -109 -48 -112 -99c-1 -18 3 -31 12 -41zM243 20c53 12 114 48 112 108c-2 62 -65 66 -160 64v-178c16 1 33 2 48 6z" />
    <glyph glyph-name="uniF113" unicode="&#xf113;" horiz-adv-x="472" 
d="M458 19l14 -13c-46 -43 -107 -70 -175 -70c-127 0 -233 93 -253 214h-44v19h42c-1 7 -1 15 -1 23c0 12 0 24 2 35h-41v19h44c25 115 128 202 251 202c65 0 124 -24 169 -64l-14 -14c-42 36 -95 59 -155 59c-112 0 -206 -79 -231 -183h275v-19h-279c-2 -11 -2 -23 -2 -35
c0 -8 0 -16 1 -23h254v-19h-251c20 -110 117 -195 233 -195c62 0 119 24 161 64z" />
    <glyph glyph-name="uniF114" unicode="&#xf114;" horiz-adv-x="511" 
d="M511 344v0v-133h-28v-233c0 -23 -18 -42 -41 -42h-375c-23 0 -41 19 -41 42v233h-26v133h142l-24 24c-11 11 -5 28 6 39l33 33c11 11 22 11 33 0l66 -66l65 66c11 11 22 11 33 0l33 -33c11 -11 18 -28 7 -39l-24 -24h141zM338 404l-57 -57c1 -1 1 -2 2 -3h34l40 40z
M154 384l40 -40h34c1 1 1 2 2 3l-56 57zM19 325v-95h211v95h-211zM43 -22c0 -13 11 -25 24 -25h163v258h-187v-233zM466 -22v0v233h-185v-258h161c13 0 24 12 24 25zM493 230v95h-212v-95h212z" />
    <glyph glyph-name="uniF115" unicode="&#xf115;" 
d="M0 -44v392h61v-392h-61zM109 -44v283h61v-283h-61zM218 -44v332h61v-332h-61zM327 -44v194h61v-194h-61zM446 -44v134h61v-134h-61zM503 293c5 0 9 -5 9 -10l-5 -70c0 -5 -5 -9 -10 -9h-66c-5 0 -10 5 -10 10s5 10 10 10h41l-218 167l-104 -28c-2 -1 -6 0 -8 1l-118 65
c-5 3 -7 9 -4 14s8 7 13 4l115 -64l106 29c3 1 6 0 8 -2l227 -174l3 48c0 5 5 9 11 9z" />
    <glyph glyph-name="uniF116" unicode="&#xf116;" 
d="M18 -45h494v-19h-512v512h18v-493zM157 304l-46 -59l-14 11l69 92l37 -175l95 43l66 -47l108 -74v64h18l1 -100l-96 3l1 19l67 -3l-109 76l-58 41l-106 -48z" />
    <glyph glyph-name="uniF117" unicode="&#xf117;" horiz-adv-x="494" 
d="M0 -64v131h59v-131h-59zM106 -64v247h59v-247h-59zM213 -64v92h59v-92h-59zM319 -64v285h59v-285h-59zM435 -64v382h59v-382h-59zM20 208c-3 0 -5 1 -7 3c-4 4 -3 10 1 14l115 110c4 4 10 3 14 -1l99 -99l206 191l-39 3c-5 0 -9 5 -9 10s6 9 11 9l58 -5c5 0 9 -4 9 -9
v-65c0 -5 -5 -9 -10 -9s-9 4 -9 9v40l-210 -195c-4 -4 -10 -4 -14 0l-99 100l-109 -103c-2 -2 -5 -3 -7 -3z" />
    <glyph glyph-name="uniF118" unicode="&#xf118;" 
d="M18 -45h494v-19h-512v512h18v-493zM147 131l-35 -59l-16 10l44 74l54 -30l103 111l60 -60l104 173l-66 -15l-4 19l97 20l17 -94l-18 -3l-11 62l-115 -192l-63 64l-100 -108z" />
    <glyph glyph-name="uniF119" unicode="&#xf119;" 
d="M503 448c5 0 9 -4 9 -9v-264c0 -5 -4 -9 -9 -9h-22v-83v0c-2 -24 -56 -36 -105 -36s-102 12 -104 36v0v83h-263c-5 0 -9 4 -9 9v264c0 5 4 9 9 9h494zM18 430v-41c20 9 37 23 48 41h-48zM18 184h42c-10 17 -25 31 -42 40v-40zM81 184h92c-21 31 -34 73 -34 119
c0 50 15 96 39 127h-92c-14 -28 -38 -49 -68 -60v-126c27 -12 50 -34 63 -60zM195 184v0h77v151c0 20 34 32 73 36c-8 24 -20 44 -34 59h-110c-27 -27 -44 -74 -44 -127c0 -48 15 -91 38 -119zM290 251v-43h1c5 -6 33 -17 85 -17s81 11 86 17h1v43c-20 -10 -55 -15 -87 -15
s-66 5 -86 15zM462 271v0h1v43c-20 -10 -55 -16 -87 -16s-66 6 -86 16v-43h1c5 -6 33 -18 85 -18s81 12 86 18zM290 188v-43h1c5 -6 33 -17 85 -17s81 11 86 17h1v43c-20 -10 -55 -15 -87 -15s-66 5 -86 15zM376 316c57 0 86 15 87 20c-1 5 -30 19 -87 19s-85 -15 -86 -20v0
c1 -5 29 -19 86 -19zM462 83h1v42c-20 -10 -55 -15 -87 -15s-66 5 -86 15v-42h1c5 -6 33 -18 85 -18s81 12 86 18zM494 184v39c-5 -2 -9 -5 -13 -8v-31h13zM494 243v129c-27 12 -49 32 -62 58h-98c12 -16 22 -36 29 -58c5 0 9 1 13 1c50 0 105 -13 105 -38v-99c4 3 8 5 13 7
zM494 392v0v38h-41c10 -16 24 -29 41 -38zM89 335c15 0 26 -12 26 -27s-11 -27 -26 -27s-27 12 -27 27s12 27 27 27zM89 299c5 0 9 4 9 9s-4 9 -9 9s-9 -4 -9 -9s4 -9 9 -9z" />
    <glyph glyph-name="uniF11A" unicode="&#xf11a;" 
d="M502 246c5 0 10 -5 10 -10v-249c0 -5 -5 -10 -10 -10h-492c-5 0 -10 5 -10 10v249c0 5 5 10 10 10h23l190 162c0 2 -1 4 -1 6c0 19 15 34 34 34s34 -15 34 -34v-2l191 -166h21zM256 429c-8 0 -15 -7 -15 -15s7 -15 15 -15s15 7 15 15s-7 15 -15 15zM232 390l-169 -144
h388l-169 147c-6 -8 -15 -13 -26 -13c-10 0 -18 4 -24 10zM493 -4v231h-19v0h-1h-454v-231h474zM95 174c53 0 52 -52 52 -69s1 -69 -52 -69s-53 52 -53 69s0 69 53 69zM95 56c16 0 33 4 33 49s-17 49 -33 49s-34 -4 -34 -49s18 -49 34 -49zM172 174c4 1 43 5 63 -12
c7 -6 11 -15 11 -25s-4 -19 -11 -26c-15 -14 -39 -17 -52 -17v-57h-19v127c0 5 3 9 8 10zM222 125c3 3 5 7 5 12s-2 8 -5 11c-9 7 -27 8 -39 7v-41c11 0 30 3 39 11zM273 161c0 5 4 10 9 10h60v-19h-50v-33h33v-19h-33v-40h50v-19h-60c-5 0 -9 5 -9 10v110zM442 87v82h19
v-114c0 -4 -3 -8 -7 -9c-1 0 -1 -1 -2 -1c-3 0 -6 2 -8 5l-55 79v-83h-19v114c0 4 3 9 7 10s9 0 11 -4z" />
    <glyph glyph-name="uniF11B" unicode="&#xf11b;" horiz-adv-x="510" 
d="M104 240c-57 0 -104 47 -104 104s47 104 104 104s104 -47 104 -104s-47 -104 -104 -104zM104 430c-47 0 -86 -39 -86 -86s39 -85 86 -85s85 38 85 85s-38 86 -85 86zM406 144c57 0 104 -47 104 -104s-47 -104 -104 -104s-103 47 -103 104s46 104 103 104zM406 -46
c47 0 86 39 86 86s-39 85 -86 85s-85 -38 -85 -85s38 -86 85 -86zM37 -35l-13 13l439 439l13 -13z" />
    <glyph glyph-name="uniF11C" unicode="&#xf11c;" 
d="M256 448c141 0 256 -115 256 -256s-115 -256 -256 -256c-70 0 -134 29 -180 75h-1v1c-46 46 -75 110 -75 180s29 134 75 180v1h1c46 46 110 75 180 75zM247 214v216c-59 -2 -113 -26 -153 -64zM82 354c-39 -42 -64 -100 -64 -162s25 -120 64 -162l161 162zM256 -46
c131 0 238 107 238 238c0 128 -102 233 -229 238v-239c0 -3 -2 -5 -5 -7l-166 -166c43 -39 100 -64 162 -64z" />
    <glyph glyph-name="uniF11D" unicode="&#xf11d;" horiz-adv-x="452" 
d="M442 -18l10 -15c-34 -22 -60 -31 -82 -31c-30 0 -51 16 -74 32c-15 10 -30 20 -48 28c-64 26 -154 -46 -155 -47l-1 1c-4 -4 -8 -7 -13 -11l-11 14c103 81 71 160 39 237h-107v18h99c-25 59 -44 119 11 174c67 67 143 72 194 63c72 -12 127 -53 143 -86l-16 -8
c-14 28 -67 65 -130 76c-47 8 -116 5 -178 -57c-49 -49 -30 -101 -4 -162h173v-18h-166c25 -60 50 -126 7 -194c35 18 81 33 121 17c20 -8 37 -21 52 -31c39 -27 67 -46 136 0z" />
    <glyph glyph-name="uniF11E" unicode="&#xf11e;" 
d="M174 27c1 -1 5 -1 7 -1c3 0 7 -1 10 -2l-7 -17c-1 0 -2 1 -4 1c-5 1 -12 1 -16 4s-5 6 -7 9c-1 0 -3 1 -4 2c-7 5 -8 10 -8 14c0 2 -1 2 -1 3c0 0 -1 2 -2 2c-2 1 -3 3 -5 6c-1 2 -2 5 -3 7v1c-2 -1 -3 -1 -5 -2c-3 -1 -8 0 -10 2l-3 3c-2 2 -4 3 -5 5
c-17 8 -35 24 -43 39l16 8c5 -10 17 -20 29 -27v1c5 10 19 26 34 28c8 1 14 -2 19 -8s7 -13 6 -19c-2 -10 -11 -16 -19 -21c-1 -1 -2 -1 -3 -2c0 -1 1 -1 1 -2c1 -2 0 -3 1 -4c0 0 1 -2 2 -2c2 -1 3 -3 5 -6s3 -6 3 -8c1 0 3 -1 4 -2c3 -3 5 -6 6 -8s1 -3 2 -4zM144 80
c8 5 11 7 11 9c0 1 -2 4 -3 5c-2 2 -2 2 -3 2c-6 -1 -16 -11 -20 -19v0c1 0 2 -1 3 -1c2 1 4 2 6 1zM509 295c3 -3 3 -9 0 -12l-344 -344c-2 -2 -4 -3 -6 -3s-4 1 -6 3l-150 150c-2 2 -3 4 -3 6s1 4 3 6l344 344c3 3 9 3 12 0zM159 -43l332 332l-138 138l-332 -332zM350 373
c-3 3 -3 10 0 13s9 3 12 0l87 -87c3 -3 3 -10 0 -13c-2 -2 -5 -2 -7 -2s-4 0 -6 2zM361 336l36 -37c3 -3 3 -9 0 -12c-2 -2 -4 -3 -6 -3s-4 1 -6 3l-37 36c-3 3 -3 10 0 13s10 3 13 0zM328 257l-47 47c-3 3 -3 10 0 13s9 3 12 0l47 -47c3 -3 3 -10 0 -13c-2 -2 -4 -2 -6 -2
s-4 0 -6 2zM365 245l15 -15c3 -3 3 -9 0 -12c-2 -2 -4 -3 -6 -3s-5 1 -7 3l-14 14c-3 3 -3 10 0 13s9 3 12 0zM296 226l-46 47c-3 3 -3 10 0 13s9 3 12 0l47 -47c3 -3 3 -10 0 -13c-2 -2 -4 -2 -6 -2s-5 0 -7 2zM334 214l15 -15c3 -3 3 -10 0 -13c-2 -2 -5 -2 -7 -2
s-4 0 -6 2l-15 15c-3 3 -3 10 0 13s10 3 13 0zM265 195l-47 47c-3 3 -3 9 0 12s10 3 13 0l47 -47c3 -3 3 -9 0 -12c-2 -2 -5 -3 -7 -3s-4 1 -6 3zM303 182l14 -14c3 -3 3 -10 0 -13c-2 -2 -4 -2 -6 -2s-4 0 -6 2l-15 15c-3 3 -3 9 0 12s10 3 13 0zM234 164l-47 47
c-3 3 -3 9 0 12s10 3 13 0l46 -47c3 -3 3 -9 0 -12c-2 -2 -4 -3 -6 -3s-4 1 -6 3zM271 151l15 -15c3 -3 3 -9 0 -12c-2 -2 -4 -3 -6 -3s-4 1 -6 3l-15 15c-3 3 -3 9 0 12s9 3 12 0zM168 192l47 -47c3 -3 3 -10 0 -13c-2 -2 -4 -2 -6 -2s-4 0 -6 2l-47 47c-3 3 -3 10 0 13
s9 3 12 0zM240 120l15 -15c3 -3 3 -9 0 -12c-2 -2 -4 -3 -6 -3s-5 1 -7 3l-14 14c-3 3 -3 10 0 13s9 3 12 0z" />
    <glyph glyph-name="uniF11F" unicode="&#xf11f;" horiz-adv-x="395" 
d="M199 149c41 1 88 -2 90 -46c1 -32 -25 -57 -67 -67c-7 -2 -15 -4 -23 -4v-25h-17v25c-37 2 -73 20 -89 55l17 7c13 -28 42 -42 72 -44v80c-30 0 -57 1 -72 16c-7 8 -11 18 -10 31c2 32 27 55 67 62c5 1 10 2 15 2v22h17v-22c33 -2 66 -17 77 -45l-17 -7
c-8 20 -34 31 -60 33v-73zM123 159c10 -10 33 -11 58 -11v75c-4 0 -7 -1 -11 -2c-12 -2 -50 -11 -52 -45c0 -8 1 -13 5 -17zM218 53c25 6 54 23 53 50c-1 26 -28 29 -72 28v-81c6 0 13 2 19 3zM386 448c5 0 9 -4 9 -9v-494c0 -3 -1 -5 -4 -7c-1 -1 -3 -2 -5 -2
c-1 0 -2 1 -3 1l-39 16l-43 -16c-2 -1 -5 -1 -7 0l-46 16l-49 -16c-2 -1 -4 -1 -6 0l-43 16l-46 -16c-2 -1 -4 -1 -6 0l-45 16l-41 -16c-3 -1 -6 -1 -8 1s-4 4 -4 7v494c0 5 4 9 9 9h377zM377 -41v471h-359v-472l31 13c1 0 3 1 4 1s2 -1 3 -1l45 -16l46 16c2 1 5 1 7 0
l43 -16l48 16c2 1 4 1 6 0l46 -16l44 16c2 1 5 1 7 0zM59 366v18h277v-18h-277zM59 321v18h205v-18h-205z" />
    <glyph glyph-name="uniF120" unicode="&#xf120;" 
d="M256 448c141 0 256 -115 256 -256s-115 -256 -256 -256s-256 115 -256 256s115 256 256 256zM256 -46c131 0 238 107 238 238s-107 238 -238 238s-238 -107 -238 -238s107 -238 238 -238zM225 133l150 155l13 -13l-162 -167l-79 68l12 14z" />
    <glyph glyph-name="uniF121" unicode="&#xf121;" 
d="M458 448c30 0 54 -24 54 -54v-404c0 -30 -24 -54 -54 -54h-404c-30 0 -54 24 -54 54v404c0 30 24 54 54 54h404zM458 -46c20 0 36 16 36 36v41c-2 -1 -4 -2 -7 -2c-8 0 -15 7 -15 15v74c0 8 7 14 15 14c3 0 5 -1 7 -2v117c-2 -1 -4 -2 -7 -2c-8 0 -15 7 -15 15v73
c0 8 7 15 15 15c3 0 5 -1 7 -2v48c0 20 -16 36 -36 36h-404c-20 0 -36 -16 -36 -36v-404c0 -20 16 -36 36 -36h404zM256 300c64 0 117 -53 117 -117s-53 -116 -117 -116s-116 52 -116 116s52 117 116 117zM256 85c54 0 99 44 99 98s-45 99 -99 99c-51 0 -93 -40 -98 -90h50
c4 23 24 40 48 40c27 0 50 -22 50 -49s-23 -49 -50 -49c-24 0 -44 17 -48 40h-50c5 -50 47 -89 98 -89zM291 381l-35 -56l-35 56l16 9l19 -31l19 31z" />
    <glyph glyph-name="uniF122" unicode="&#xf122;" horiz-adv-x="478" 
d="M478 251c1 -3 0 -6 -2 -8s-4 -3 -7 -3h-115c-3 0 -5 1 -7 3s-2 5 -1 8l48 161l-109 -41v-6c0 -20 -14 -38 -33 -42v-291c50 -3 95 -36 112 -84l4 -12h-250l5 12c17 48 61 80 111 84v291c-11 2 -20 10 -26 19l-126 -46l50 -167c1 -3 1 -6 -1 -8s-4 -3 -7 -3h-115
c-3 0 -5 1 -7 3s-3 5 -2 8l58 191c1 4 5 6 9 6s7 -2 8 -6l2 -7l125 46c0 2 -1 4 -1 6c0 20 14 37 33 41v23h18v-23c11 -2 20 -10 26 -19l123 46l3 9c1 4 4 6 8 6v0c4 0 8 -2 9 -6zM21 135h91l-45 151zM342 -46c-19 37 -57 61 -99 61s-80 -24 -99 -61h198zM243 340
c13 0 24 12 24 25s-11 24 -24 24s-24 -11 -24 -24s11 -25 24 -25zM366 257h91l-45 152zM127 100v-8c0 -34 -27 -61 -61 -61s-61 27 -61 61c0 3 1 5 1 8h121zM351 222h121c0 -3 1 -5 1 -8c0 -34 -27 -61 -61 -61s-61 27 -61 61v8z" />
    <glyph glyph-name="uniF123" unicode="&#xf123;" horiz-adv-x="497" 
d="M497 205c1 -3 0 -6 -2 -8s-4 -3 -7 -3h-117c-3 0 -6 1 -8 3s-2 5 -1 8l51 168h-123c-4 -16 -17 -28 -33 -32v-307c51 -4 96 -37 114 -86l5 -12h-255l4 12c18 49 63 82 114 86v307c-16 4 -29 16 -33 32h-121l50 -168c1 -3 1 -6 -1 -8s-4 -3 -7 -3h-118c-3 0 -5 1 -7 3
s-3 5 -2 8l59 195c1 4 5 6 9 6v0c4 0 8 -2 9 -6l2 -8h127c4 16 17 28 33 32v24h18v-24c16 -4 29 -16 33 -32h128l3 8c1 4 5 6 9 6v0c4 0 7 -2 8 -6zM21 212h93l-46 154zM349 -46c-19 38 -58 62 -101 62s-82 -24 -101 -62h202zM248 358c14 0 25 10 25 24s-11 25 -25 25
s-25 -11 -25 -25s11 -24 25 -24zM383 212h93l-46 154zM129 176c0 -3 1 -6 1 -9c0 -34 -28 -62 -62 -62s-62 28 -62 62v9h123zM368 176h123c0 -3 1 -6 1 -9c0 -34 -29 -62 -63 -62s-62 28 -62 62c0 3 1 6 1 9z" />
    <glyph glyph-name="uniF124" unicode="&#xf124;" horiz-adv-x="490" 
d="M490 341v0v-262l-245 -143l-245 143v261v0l245 108zM245 429l-84 -37l201 -103l88 49zM18 89l218 -127v246l-215 121h-3v-240zM40 339l205 -116l99 55l-204 105zM472 89v0v239h-3l-215 -121v-245zM490 340v0v0v0zM68 137v94l100 -57v-95zM86 200v-53l64 -37v53z" />
    <glyph glyph-name="uniF125" unicode="&#xf125;" horiz-adv-x="459" 
d="M300 372h159v-436h-459v436h153v32c0 40 34 44 74 44s73 -4 73 -44v-32zM173 404v-32h107v32c0 30 -23 25 -53 25s-54 5 -54 -25zM440 -45v0v398h-140v-47h-20v47h-107v-47h-20v47h-134v-398h421zM239 246v-105h105v-20h-105v-105h-20v105h-104v20h104v105h20z" />
    <glyph glyph-name="uniF126" unicode="&#xf126;" horiz-adv-x="459" 
d="M300 372h159v-436h-459v436h153v32c0 40 34 44 74 44s73 -4 73 -44v-32zM173 404v-32h107v32c0 30 -23 25 -53 25s-54 5 -54 -25zM440 -45v0v398h-140v-47h-20v47h-107v-47h-20v47h-134v-398h421zM304 212l13 -13l-74 -75l74 -74l-13 -13l-75 74l-74 -74l-13 13l74 74
l-74 75l13 13l74 -74z" />
    <glyph glyph-name="uniF127" unicode="&#xf127;" horiz-adv-x="459" 
d="M300 372h159v-436h-459v436h154v32c0 40 33 44 73 44s73 -4 73 -44v-32zM173 404v-32h107v32c0 30 -23 25 -53 25s-54 5 -54 -25z" />
    <glyph glyph-name="uniF128" unicode="&#xf128;" horiz-adv-x="459" 
d="M300 372h159v-436h-459v436h153v32c0 40 34 44 74 44s73 -4 73 -44v-32zM173 404v-32h107v32c0 30 -23 25 -53 25s-54 5 -54 -25zM440 -45v398h-140v-47h-20v47h-107v-47h-20v47h-134v-398h421zM229 245c63 0 115 -52 115 -115s-52 -115 -115 -115s-115 52 -115 115
s52 115 115 115zM229 35c53 0 96 42 96 95s-43 96 -96 96s-96 -43 -96 -96s43 -95 96 -95z" />
    <glyph glyph-name="uniF129" unicode="&#xf129;" horiz-adv-x="459" 
d="M300 372h159v-436h-459v436h153v32c0 40 34 44 74 44s73 -4 73 -44v-32zM173 404v-32h107v32c0 30 -23 25 -53 25s-54 5 -54 -25zM440 -45v0v398h-140v-47h-20v47h-107v-47h-20v47h-134v-398h421zM119 122v19h228v-19h-228z" />
    <glyph glyph-name="uniF12A" unicode="&#xf12a;" horiz-adv-x="459" 
d="M300 372h159v-436h-459v436h153v32c0 40 34 44 74 44s73 -4 73 -44v-32zM173 404v-32h107v32c0 30 -23 25 -53 25s-54 5 -54 -25zM440 -45v398h-140v-47h-20v47h-107v-47h-20v47h-134v-398h421z" />
    <glyph glyph-name="uniF12B" unicode="&#xf12b;" 
d="M510 232c2 -2 3 -6 2 -9l-84 -253c-1 -4 -5 -6 -9 -6h-326c-4 0 -8 2 -9 6l-84 253c-1 3 0 7 2 9s4 3 7 3h494c3 0 5 -1 7 -3zM343 69l12 70h-90v-70h78zM374 139l-12 -70h79l23 70h-90zM48 139l23 -70h79l-13 70h-89zM156 139l12 -70h78v70h-90zM153 158h93v59h-103z
M246 50h-74l12 -68h62v68zM265 50v-68h63l12 68h-75zM265 158h94l10 59h-104v-59zM124 217h-102l20 -59h92zM77 50l23 -68h65l-12 68h-76zM412 -18l23 68h-76l-12 -68h65zM470 158l20 59h-102l-10 -59h92zM96 245l-15 12l105 132c-6 6 -9 14 -9 23c0 20 16 36 36 36
s35 -16 35 -36s-15 -35 -35 -35c-4 0 -8 1 -11 2zM213 429c-9 0 -17 -8 -17 -17s8 -17 17 -17s17 8 17 17s-8 17 -17 17zM300 377c-20 0 -36 15 -36 35s16 36 36 36s36 -16 36 -36c0 -9 -4 -17 -9 -23l98 -133l-15 -11l-99 134c-4 -1 -7 -2 -11 -2zM300 429
c-9 0 -17 -8 -17 -17s8 -17 17 -17s17 8 17 17s-8 17 -17 17z" />
    <glyph glyph-name="uniF12C" unicode="&#xf12c;" 
d="M408 109c24 0 44 -19 44 -43s-20 -44 -44 -44s-44 20 -44 44c0 9 2 17 7 24h-156c5 -7 8 -16 8 -25c0 -24 -20 -44 -44 -44s-44 20 -44 44c0 10 4 18 9 25l-16 65l-57 207v0c0 1 -1 3 -1 4l-5 18h1c-15 42 -50 45 -65 44l-1 20c33 2 71 -14 86 -64h426l-65 -236h-296
l9 -39h245v0h3zM486 364h-394l54 -196h286zM179 41c13 0 24 11 24 24s-11 23 -24 23s-24 -10 -24 -23s11 -24 24 -24zM408 42c13 0 24 11 24 24s-11 24 -24 24s-24 -11 -24 -24s11 -24 24 -24z" />
    <glyph glyph-name="uniF12D" unicode="&#xf12d;" 
d="M512 -14c1 -5 -2 -10 -7 -11s-10 1 -11 6l-18 64l-26 -23c-2 -2 -5 -3 -8 -2s-5 3 -6 6l-51 152l-30 -34c5 -9 8 -18 8 -29c0 -28 -20 -52 -47 -56v-1v-113c0 -5 -4 -9 -9 -9s-9 4 -9 9v113v1c-27 4 -47 28 -47 56c0 18 9 34 22 44l-36 84l-31 -19c-4 -3 -9 -2 -12 2
l-19 29l-25 -58c-2 -3 -5 -6 -9 -6s-7 3 -8 7l-27 97h-20c-2 0 -5 1 -7 3l-19 19l-19 -25c-2 -3 -5 -4 -8 -4s-7 2 -8 5l-24 55c-2 5 -1 10 4 12c1 1 3 1 4 1c3 0 7 -3 8 -6l18 -40l16 21c2 2 4 4 7 4s5 -1 7 -3l24 -24h24c4 0 8 -3 9 -7l22 -79l22 51c1 3 4 5 7 5
s7 -1 9 -4l22 -35l32 19c2 1 6 2 8 1s4 -3 5 -5l40 -91c3 1 6 1 9 2v1v268c0 5 4 9 9 9s9 -4 9 -9v-268v-1c10 -2 19 -6 27 -12l39 43c2 2 6 4 9 3s5 -3 6 -6l52 -153l25 23c2 2 6 3 9 2s5 -4 6 -7zM307 76c21 0 38 18 38 39s-17 38 -38 38s-38 -17 -38 -38s17 -39 38 -39z
M298 112c0 6 3 9 9 9s9 -3 9 -9s-3 -9 -9 -9s-9 3 -9 9z" />
    <glyph glyph-name="uniF12E" unicode="&#xf12e;" 
d="M505 409c5 -1 7 -6 6 -11l-22 -77c-1 -3 -3 -6 -6 -7s-7 0 -9 2l-25 23l-52 -153c-1 -3 -3 -5 -6 -6s-7 1 -9 3l-39 43c-8 -6 -17 -10 -27 -12v-1v-268c0 -5 -4 -9 -9 -9s-9 4 -9 9v268v1c-3 1 -6 1 -9 2l-40 -91c-1 -2 -3 -4 -5 -5s-6 0 -8 1l-32 19l-22 -35
c-2 -3 -6 -4 -9 -4s-6 2 -7 5l-22 51l-22 -79c-1 -4 -5 -7 -9 -7h-24l-24 -24c-2 -2 -4 -3 -7 -3s-5 2 -7 4l-16 21l-18 -40c-1 -3 -5 -6 -8 -6c-1 0 -3 0 -4 1c-5 2 -6 7 -4 12l24 55c1 3 5 5 8 5s6 -1 8 -4l19 -25l19 19c2 2 5 3 7 3h20l27 97c1 4 4 7 8 7s7 -3 9 -6
l25 -58l19 29c3 4 8 5 12 2l31 -19l36 84c-13 10 -22 26 -22 44c0 28 20 52 47 56v1v113c0 5 4 9 9 9s9 -4 9 -9v-113v-1c27 -4 47 -28 47 -56c0 -11 -3 -20 -8 -29l30 -34l51 152c1 3 3 5 6 6s6 0 8 -2l26 -23l18 64c1 5 6 7 11 6zM307 231c21 0 38 17 38 38s-17 39 -38 39
s-38 -18 -38 -39s17 -38 38 -38zM298 269c0 6 3 9 9 9s9 -3 9 -9s-3 -9 -9 -9s-9 3 -9 9z" />
    <glyph glyph-name="uniF12F" unicode="&#xf12f;" 
d="M509 297c2 -2 3 -4 3 -6v-45c0 -2 -1 -4 -3 -6c-1 -1 -13 -13 -33 -24c-1 -1 -3 -1 -4 -2v-215c0 -30 -24 -54 -54 -54h-324c-30 0 -54 24 -54 54v214c-1 1 -3 1 -4 2c-20 11 -32 24 -33 25c-2 2 -3 4 -3 6v45c0 2 1 4 3 6l113 117c2 2 4 2 6 2v0h269c2 0 4 -1 6 -3z
M126 398l-96 -98h452l-95 98h-261zM86 201c-9 0 -19 1 -28 4v-100h396v102c-12 -4 -24 -6 -35 -6c-39 0 -70 26 -83 40c-12 -14 -41 -40 -80 -40c-40 0 -73 28 -87 41c-14 -13 -48 -41 -83 -41zM418 -37c20 0 36 16 36 36v88h-396v-88c0 -20 16 -36 36 -36h227h92h5z
M468 232c13 7 22 14 26 18v32h-476v-32c4 -4 14 -12 27 -19c6 -3 11 -6 16 -8c8 -3 17 -4 25 -4c38 0 77 42 77 42c2 2 4 3 7 3s4 -1 6 -3c0 0 37 -42 80 -42s72 41 72 41c2 2 4 4 7 4h1c3 0 5 -2 7 -4c0 0 32 -41 76 -41c10 0 21 2 32 6c6 2 12 4 17 7zM112 430v18h288v-18
h-288z" />
    <glyph glyph-name="uniF130" unicode="&#xf130;" 
d="M501 429c6 -47 22 -201 -2 -225l-248 -248c-11 -11 -25 -16 -43 -16c-23 0 -47 10 -62 25l-126 126c-13 13 -20 30 -20 48s7 36 20 49l248 247c6 6 19 13 72 13c65 0 152 -11 153 -11c4 -1 7 -4 8 -8zM486 217c12 12 8 113 -2 203c-22 2 -91 10 -144 10
c-49 0 -58 -7 -59 -8l-248 -247c-9 -9 -15 -23 -15 -36s6 -26 15 -35l126 -126c12 -12 31 -20 49 -20c9 0 21 2 30 11zM396 383c25 0 45 -20 45 -45s-20 -45 -45 -45s-44 20 -44 45s19 45 44 45zM396 312c14 0 27 11 27 26s-13 26 -27 26c-15 0 -26 -11 -26 -26
s11 -26 26 -26z" />
    <glyph glyph-name="uniF131" unicode="&#xf131;" 
d="M501 429c6 -47 22 -201 -2 -225l-248 -248c-11 -11 -25 -16 -43 -16c-23 0 -47 10 -62 25l-126 126c-13 13 -20 30 -20 48s7 36 20 49l248 247c6 6 19 13 72 13c65 0 152 -11 153 -11c4 -1 7 -4 8 -8zM486 217c12 12 8 113 -2 203c-22 2 -91 10 -144 10
c-49 0 -58 -7 -59 -8l-248 -247c-9 -9 -15 -23 -15 -36s6 -26 15 -35l126 -126c12 -12 31 -20 49 -20c9 0 21 2 30 11zM396 383c25 0 45 -20 45 -45s-20 -45 -45 -45s-44 20 -44 45s19 45 44 45zM396 312c15 0 27 11 27 26c0 14 -12 26 -27 26s-26 -11 -26 -26
s12 -26 26 -26zM278 296l-176 -176l-13 13l176 176zM258 211l-124 -123l-13 13l124 123z" />
    <glyph glyph-name="uniF132" unicode="&#xf132;" 
d="M335 260l-17 -16c22 -26 36 -60 24 -89l-17 7c9 20 -2 47 -20 68l-54 -54c31 -29 63 -65 32 -99c-11 -12 -27 -18 -44 -18s-35 6 -54 18c-7 4 -13 9 -19 14l-19 -19l-13 13l19 19c-25 29 -39 68 -25 105l17 -7c-11 -30 0 -61 21 -85l59 59c-22 21 -41 42 -41 64
c0 11 5 21 15 30c25 22 60 21 95 -4c4 -3 7 -6 11 -9l17 16zM202 240c0 -15 17 -33 36 -51l54 55c-3 3 -6 5 -9 7c-10 7 -45 29 -72 5c-6 -5 -9 -10 -9 -16zM270 90c19 20 1 41 -32 73l-59 -59c5 -4 10 -9 15 -12c23 -14 57 -23 76 -2zM501 429c6 -47 22 -201 -2 -225
l-248 -248c-11 -11 -25 -16 -43 -16c-23 0 -47 10 -62 25l-126 126c-13 13 -20 30 -20 48s7 36 20 49l248 247c6 6 19 13 72 13c65 0 152 -11 153 -11c4 -1 7 -4 8 -8zM486 217c12 12 8 113 -2 203c-22 2 -91 10 -144 10c-49 0 -58 -7 -59 -8l-248 -247
c-9 -9 -15 -23 -15 -36s6 -26 15 -35l126 -126c12 -12 31 -20 49 -20c9 0 21 2 30 11zM396 383c25 0 45 -20 45 -45s-20 -45 -45 -45s-44 20 -44 45s19 45 44 45zM396 312c14 0 27 11 27 26c0 14 -13 26 -27 26s-26 -11 -26 -26s11 -26 26 -26z" />
    <glyph glyph-name="uniF133" unicode="&#xf133;" 
d="M501 429c6 -47 22 -201 -2 -225l-248 -248c-11 -11 -25 -16 -43 -16c-23 0 -47 10 -62 25l-126 126c-27 27 -27 70 0 97l248 247c6 6 19 13 72 13c65 0 152 -11 153 -11c4 -1 7 -4 8 -8zM423 338c0 15 -12 26 -27 26s-26 -11 -26 -26s11 -26 26 -26s27 11 27 26z" />
    <glyph glyph-name="uniF134" unicode="&#xf134;" horiz-adv-x="504" 
d="M464 319c23 -3 40 -21 40 -45v-292c0 -25 -21 -46 -46 -46h-412c-25 0 -46 21 -46 46v15v18v259c0 25 21 46 46 46h34l-8 2l16 69l51 -9l12 66zM165 422l-8 -44l206 -37zM102 370l-12 -50h287zM18 274v-259h468v259c0 15 -13 27 -28 27h-412c-15 0 -28 -12 -28 -27z
M458 -46c15 0 28 13 28 28v15h-468v-15c0 -15 13 -28 28 -28h412z" />
    <glyph glyph-name="uniF135" unicode="&#xf135;" horiz-adv-x="437" 
d="M437 432l-199 -233h127v-19h-138v-55h138v-18h-138v-171h-18v171h-138v18h138v55h-138v19h127l-198 237l14 12l204 -244l205 240z" />
  </font>
</defs>
</svg>
